๑۩۞۩๑ LỚP K35-CĐVT1 ๑۩۞۩๑
Chào mừng đến với diễn đàn lớp 35CĐVT1 - Trường CĐ Điện tử - Điện lạnh HN.
Hãy đến và cùng chia sẻ, giao lưu, kết bạn cùng chúng tôi. Chúng tôi luôn sẵn sàng chào đón.
Chúc các bạn luôn vui vẻ, mạnh khỏe và thành đạt trong cuộc sống.

๑۩۞۩๑ LỚP K35-CĐVT1 ๑۩۞۩๑

̡̡͡|̲̲̲͡͡͡ ̲▫̲͡ ̲̲̲͡͡π̲̲͡͡ ̲̲͡▫̲̲͡͡ ̲|̡̡̡ ̡ ̴̡ı̴̡̡ *̡͌l̡*̡̡_CĐ Điện Tử - Điện Lạnh HN_*̡͌l̡*̡̡ ̴̡ı̴̴̡ ̡̡͡|̲̲̲͡͡͡ ̲▫̲͡ ̲̲̲͡͡π̲̲͡͡ ̲̲͡▫̲̲͡͡ ̲|
 
Trang ChínhNghe Nhạc Nào...CalendarTrợ giúpTìm kiếmThành viênNhómĐăng kýĐăng Nhập

๑۩۞۩๑

DJ MÚZỊK

Welcome to DJ HaDuong
Track 1.mp3
Track 2.mp3
nga ba.mp3
nhac suong.mp3
nonstop1.mp3
nonstop68.mp3
SN 11_11.mp3
Deche.mp3
Nonstop.mp3
DJ_TuyetMeo.mp3
PHÂN LOẠI.
๑۩۞۩๑
TIN TỨC

๑۩۞۩๑
CLIP

๑۩۞۩๑
PHOTO

๑۩۞۩๑
GIẢI TRÍ

๑۩۞۩๑
TOP FILM

๑۩۞۩๑
PHẦN MỀM



Visitor Map

Share | 
 

 Adventure]Beyond Sherwood Forest 2009 720p BluRay

Xem chủ đề cũ hơn Xem chủ đề mới hơn Go down 
Tác giảThông điệp
hoanganh1989
moderator
moderator
avatar

Cung hoàng đạo : Gemini
Tổng số bài gửi : 617
Điểm : 1410
Danh tiếng : 3
Tham gia ngày : 10/12/2009
Tuổi : 28
Đến từ : ha noi

Bài gửiTiêu đề: Adventure]Beyond Sherwood Forest 2009 720p BluRay   15th August 2010, 1:27 pm

[Adventure]Beyond Sherwood Forest 2009 720p BluRay x264-iBEX
Click the image to open in full size.
Link Download:
cac ban chu y la , link duoi la cua trang disk.vn the nen cac ban phai dang ki o day thi moi co the download duoc , phim kha hay , hien tai dang tim sub nen chiu kho nghe english ^^

[You must be registered and logged in to see this link.]

Code:

General

Format : Matroska
File size : 4.37 GiB
Duration : 1h 33mn
Overall bit rate : 6 709 Kbps
Encoded date : UTC 2010-08-10 13:14:32
Writing application : mkvmerge v2.9.8 ('C'est le bon') built on Aug 13 2009 12:49:06
Writing library : libebml v0.7.7 + libmatroska v0.8.1

Video
ID : 1
Format : AVC
Format/Info : Advanced Video Codec
Format profile : High@L4.1
Format settings, CABAC : Yes
Format settings, ReFrames : 5 frames
Format settings, GOP : M=4, N=32
Muxing mode : Container profile=Unknown@4.1
Codec ID : V_MPEG4/ISO/AVC
Duration : 1h 33mn
Bit rate : 6 259 Kbps
Width : 1 280 pixels
Height : 720 pixels
Display aspect ratio : 16:9
Frame rate : 23.976 fps
Color space : YUV
Chroma subsampling : 4:2:0
Bit depth : 8 bits
Scan type : Progressive
Bits/(Pixel*Frame) : 0.283
Stream size : 3.99 GiB (91%)
Writing library : x264 core 104 r1688 0b36c6d
Encoding settings : cabac=1 / ref=5 / deblock=1:0:0 / analyse=0x3:0x133 / me=umh / subme=7 / psy=1 / psy_rd=1.00:0.00 / mixed_ref=1 / me_range=16 / chroma_me=1 / trellis=1 / 8x8dct=1 / cqm=0 / deadzone=21,11 / fast_pskip=0 / chroma_qp_offset=-2 / threads=4 / sliced_threads=0 / nr=0 / decimate=1 / interlaced=0 / constrained_intra=0 / bframes=3 / b_pyramid=2 / b_adapt=1 / b_bias=0 / direct=1 / weightb=1 / open_gop=0 / weightp=2 / keyint=250 / keyint_min=23 / scenecut=40 / intra_refresh=0 / rc_lookahead=40 / rc=2pass / mbtree=1 / bitrate=6259 / ratetol=1.0 / qcomp=0.60 / qpmin=10 / qpmax=51 / qpstep=4 / cplxblur=20.0 / qblur=0.5 / ip_ratio=1.40 / aq=1:1.00
Language : English

Audio
ID : 2
Format : AC-3
Format/Info : Audio Coding 3
Mode extension : CM (complete main)
Codec ID : A_AC3
Duration : 1h 33mn
Bit rate mode : Constant
Bit rate : 448 Kbps
Channel(s) : 6 channels
Channel positions : Front: L C R, Side: L R, LFE
Sampling rate : 48.0 KHz
Bit depth : 16 bits
Stream size : 299 MiB (7%)
Language : English


̡̡͡|̲̲̲͡͡͡ ̲▫̲͡ ̲̲̲͡͡π̲̲͡͡ ̲̲͡▫̲̲͡͡ ̲|̡̡̡ ̡ ̴̡ı̴̡̡ *̡͌l̡*̡̡_Welcome To 4Rum 35CDVT1_*̡͌l̡*̡̡ ̴̡ı̴̴̡ ̡̡͡|̲̲̲͡͡͡ ̲▫̲͡ ̲̲̲͡͡π̲̲͡͡ ̲̲͡▫̲̲͡͡ ̲|

_______๑۩۞۩๑_Chữ Ký Cá Nhân_๑۩۞۩๑_______
Về Đầu Trang Go down
Xem lý lịch thành viên http://hoanganh1989.param.mobi
 
Adventure]Beyond Sherwood Forest 2009 720p BluRay
Xem chủ đề cũ hơn Xem chủ đề mới hơn Về Đầu Trang 
Trang 1 trong tổng số 1 trang

Permissions in this forum:Bạn không có quyền trả lời bài viết
๑۩۞۩๑ LỚP K35-CĐVT1 ๑۩۞۩๑ :: TOP FILM. :: Top film rạp.-
Chuyển đến